#TITLE:Double Orbit;
#SUBTITLE:;
#ARTIST:Mutsuhiko Izumi;
#TITLETRANSLIT:;
#SUBTITLETRANSLIT:;
#ARTISTTRANSLIT:;
#CREDIT:;
#BANNER:Double Orbit.png;
#BACKGROUND:Double Orbit-bg.png;
#LYRICSPATH:;
#CDTITLE:Mus1c.png;
#MUSIC:Double Orbit.mp3;
#OFFSET:-0.286;
#SAMPLESTART:24.380;
#SAMPLELENGTH:15.500;
#SELECTABLE:YES;
#BPMS:0.000=200.000;
#STOPS:;
#BGCHANGES:;
// cache tags:
#FIRSTBEAT:0.000;
#LASTBEAT:290.000;
#SONGFILENAME:Songs/Mus1c/Double Orbit/Double Orbit.sm;
#HASMUSIC:1;
#HASBANNER:1;
#MUSICLENGTH:89.659;
// end cache tags

//---------------dance-single - ----------------
#NOTES:
     dance-single:
     :
     Challenge:
     12:
     1.000,1.000,0.981,0.714,0.669,567.000,88.000,64.000,0.000,1.000:
0020
0000
0030
0000
0000
0000
2000
0000
3000
0000
0001
0010
0100
1000
0001
0010
,
0100
1000
0100
0010
0001
0000
0001
0000
0001
0000
0001
0000
0001
0000
0000
0000
,
0020
0000
0000
0030
0000
0000
2000
0000
0000
0000
3000
0000
0002
0000
0003
0000
,
0000
0000
0100
0200
0000
0000
0000
0300
0000
0000
0000
0000
0000
0000
0000
0000
,
0002
0000
0000
0003
0000
0000
2000
0000
0000
0000
3000
0000
0200
0000
0000
0000
,
0000
0310
0010
0010
0010
0010
0020
0030
,
2200
3300
0000
0220
0330
0000
0202
0303
,
0000
0000
2020
0000
0000
3030
0000
0000
0010
0100
0010
0100
0010
0100
0010
0100
,
0010
0100
1000
0000
0110
0000
0010
0000
0001
0000
1000
0000
0011
0000
0010
0000
,
0100
0010
0011
1000
0010
0100
0011
0100
,
1000
0100
1100
0001
0010
0001
0110
1000
,
0100
0001
2010
0001
0100
0001
0110
3001
,
0010
0001
1100
0100
0010
0001
0110
1000
,
0100
0001
1010
0001
0100
0010
1010
1000
,
0100
1000
0110
0100
0001
0010
1010
0010
,
0001
0000
1000
0000
1010
0000
0100
0000
0001
0000
0010
0000
0110
1000
0100
0000
,
0001
0010
0100
1000
0010
0100
0010
1000
,
0100
0010
0100
1000
0010
0100
0001
1000
,
1001
0000
0000
1100
0000
0000
0110
0000
0000
0011
0000
0000
1100
0000
1010
0000
,
0101
0000
0000
0000
1010
0000
0000
0000
0110
0000
0000
0000
0101
0000
0000
0000
0000
0110
0000
0000
0000
0000
0000
0110
0000
0000
0000
0000
1100
0000
0000
0000
,
1100
0110
1010
0101
1000
0010
1100
0110
,
1000
1010
1001
0100
0011
1100
0001
1000
,
0010
0000
0100
0000
0001
0000
1000
0100
0010
0001
0010
0000
0100
0000
0001
0000
,
0010
1000
0100
0020
0000
0032
0000
0000
,
0003
0010
0101
0011
1010
0100
1100
0110
,
0001
0101
1001
0100
0011
1100
0010
0100
,
0010
0000
0001
0000
1000
0000
0100
0000
0001
0010
0100
1000
0100
0000
1000
0000
,
0020
0000
0130
0200
0000
2300
3000
0000
,
0020
0000
0000
0030
0000
0000
2000
0000
0000
3000
0000
0002
0000
0000
0003
0000
,
0200
0000
0000
0000
0000
0000
0000
0000
0000
0000
0300
0200
0000
0300
0200
0000
0000
0300
0200
0300
0200
0000
0000
0300
0200
0000
0000
0000
0000
0300
0000
0000
,
2000
3000
0000
0020
0030
0000
0002
0000
,
0000
0000
0000
0000
0013
0000
0100
0000
0010
0000
0100
0000
0010
0000
0100
0000
0020
0030
0020
0030
0020
0000
0000
0000
0030
0000
0000
0000
0000
0000
0000
0000
,
2000
3000
0000
0200
0300
0000
2000
3000
,
0001
0100
0001
1000
0001
0100
0001
0010
0002
0000
0000
0000
0003
0000
0000
0000
,
2200
0000
3300
0000
0000
0000
0220
0000
0330
0000
0000
0000
1000
1000
1000
1000
,
1000
1000
1000
1000
1000
1000
1000
0100
0020
0000
0032
0000
0003
0000
0000
0000
,
0100
0010
0110
1100
0011
0100
1001
0110
,
0001
1100
0101
0010
0110
0101
0001
0010
,
0100
0000
1000
0000
0100
0000
0010
0000
0001
0100
0001
0100
0001
0000
1000
0000
,
0010
0100
0010
0200
0000
0320
0000
0000
,
0030
1000
0110
0101
1001
1000
0101
1100
,
0100
0110
0011
0100
1010
0011
0100
0010
,
1001
0110
1001
0110
1001
0110
1001
0110
,
0010
0100
0010
0100
0010
0100
0002
0000
0000
0000
2003
0000
3000
0000
0000
0000
,
1000
0100
1000
0010
0100
0010
1000
0001
,
0100
1000
0010
0100
0010
0001
0100
1000
,
0020
0000
0000
0000
0000
0000
0000
0000
2030
0000
0000
0000
0000
0000
3000
1000
,
0100
0010
0100
0001
1000
0100
0010
0001
1000
0001
0100
1000
0200
0000
0000
0000
,
0301
0010
0100
0001
0010
0100
1000
0001
,
0010
0001
1000
0100
0010
0100
1000
0001
,
0100
0001
0100
0001
0100
0001
0010
0100
1000
0010
1000
0010
1000
0100
0010
0001
,
0100
0001
0100
0001
0100
0010
1000
0100
0020
0000
0000
0000
0000
0000
0031
0000
,
1000
0100
0010
1000
0010
0100
0010
0001
,
0100
0000
0010
0000
0001
0000
1000
0000
0100
0000
0010
0000
1000
0010
0100
0000
,
0000
0010
0100
0010
0100
0010
0000
0000
1000
0010
1000
0010
1000
0010
0000
0000
,
0100
0001
0100
0001
0000
0010
0100
0010
0200
0000
0000
0000
0000
0000
0000
0000
,
0310
0001
0010
0001
0100
1000
0100
0010
,
0001
1000
0001
0010
0100
1000
0001
0010
,
0100
0001
0100
0001
0100
0010
0100
0010
0100
0010
1000
0010
1000
0010
1000
0001
,
1000
0001
1000
0001
1000
0100
1000
0100
1000
0100
0010
0100
0010
0100
1000
0000
,
0020
0000
0000
0230
0000
0000
0302
0000
,
2003
0000
0000
3000
,
1000
0100
0010
0001
0010
0100
1000
0010
1000
0001
0010
0001
0100
0010
0100
0010
,
0100
0010
0100
0010
0100
0010
0100
0010
0100
0010
0001
1000
0100
1000
0001
0010
,
0100
0010
0001
1000
0100
0010
0001
0010
0100
1000
0001
0010
0100
0010
0001
1000
,
0100
0010
1000
0100
0010
0001
0010
0100
1000
0001
1000
0001
1000
0001
1000
0001
,
1000
0001
1010
0010
1000
0100
0110
0001
,
0100
1000
0110
0001
0100
1000
0011
1000
,
0100
0010
1010
0010
0100
0001
0110
0010
,
0001
0100
1010
0010
0100
1000
0010
0100
,
2002
0000
0000
0000
,
0000
0000
0000
0000
,
0000
0000
3003
0000
;
